Skip to main content

Reason For Leaving Live at Electric Earth Cafe on 2001-04-20


Topics Live concert


intro, Demons, Widgets, Planted, Two Joints, Who's Got The Herb?, Two Joints pt 2, Bladada, Sun Signal, Blown, Elvy, Dreaming, Bruce Lee


Collection ReasonForLeaving
Band/Artist Reason For Leaving
Venue Electric Earth Cafe
Location Madison WI

Source KM140’s> MV100> TCD-D10 Pro II (clamped at FOH)
Lineage DAT > shn > flac
Taped by TAS
Transferred by TAS


Notes

KM140s> MV100> TCD-D10 Pro II (clamped at FOH)

1 rfl2001-04-20t01 01:04
2 rfl2001-04-20t02 10:09
3 rfl2001-04-20t03 04:51
4 rfl2001-04-20t04 06:22
5 rfl2001-04-20t05 02:08
6 rfl2001-04-20t06 05:23
7 rfl2001-04-20t07 03:08
8 rfl2001-04-20t08 11:27
9 rfl2001-04-20t09 11:09
10 rfl2001-04-20t10 05:18
11 rfl2001-04-20t11 04:44
12 rfl2001-04-20t12 06:05
13 rfl2001-04-20t13 04:57


length expanded size cdr WAVE problems filename
1:04.63 11437820 --- -- ---xx rfl2001-04-20t01.flac
10:09.73 107599340 --- -- ---xx rfl2001-04-20t02.flac
4:51.63 51480620 --- -- ---xx rfl2001-04-20t03.flac
6:22.09 67406012 --- -- ---xx rfl2001-04-20t04.flac
2:08.25 22638044 --- -- ---xx rfl2001-04-20t05.flac
5:23.14 57010172 --- -- ---xx rfl2001-04-20t06.flac
3:08.61 33306716 --- -- ---xx rfl2001-04-20t07.flac
11:27.66 121342076 --- -- ---xx rfl2001-04-20t08.flac
11:09.71 118178636 --- -- ---xx rfl2001-04-20t09.flac
5:18.22 56146988 --- -- ---xx rfl2001-04-20t10.flac
4:44.51 50217596 --- -- ---xx rfl2001-04-20t11.flac
6:05.04 64395452 --- -- ---xx rfl2001-04-20t12.flac
4:57.36 52475516 --- -- ---xx rfl2001-04-20t13.flac
76:52.33 813634988 B (totals for 13 files, 0.5980 overall compression ratio)

Reviews

Reviewer: Duke Leto II - - June 8, 2007
Subject: High Time
Oh yes, the time was passed well at the best small venue in Madison. It was smooth workings. Thanks to RFL and the Earth!
Peace
PEOPLE ALSO FOUND
Reason For Leaving
by Reason For Leaving
13,711
0
1
( 1 reviews )
Source: Neumann KM140's (approx ORTF, FOB) > Beyer MV100 (+20dB gain) > Sony SBM-1 (Oade mod) > 48KHz S/Pdif > Sony PCM-M1
Reason For Leaving
by Reason For Leaving
789
0
0
Source: KM140 Matrix > DAT
Reason For Leaving
by Reason For Leaving
3,080
0
2
( 2 reviews )
Source: Neumann KM140's > Beyer MV100 > Sony SBM-1 (Oade mod) > Sony TCD-D100 DAT @48KHz
Reason For Leaving
by Reason For Leaving
2,242
1
0
Source: DAUD
Reason For Leaving
by Reason For Leaving
1,042
1
0
Source: Sony MTL-F96 mic (mono) > Sony PCM-M1 > DAT @ 48KHz
Reason For Leaving
by Reason For Leaving
456
1
0
Source: Matrix of SBD + Neumann KM 140's > DAT
Reason For Leaving
by Reason For Leaving
2,192
1
0
Source: Pre-FM > Fostex D-10 Master DAT recorder
Reason For Leaving
by Reason For Leaving
1,676
1
0
Source: KM140's > MV100 > DAT
Reason For Leaving
by Reason For Leaving
1,923
1
0
Source: Neumann KM140 > MV100 > SBM > DAT
Reason For Leaving
by Reason For Leaving
495
1
0
Source: Neumann KM140s's > Beyer MV100 > Sony DAT